#TITLE:Boys;
#SUBTITLE:;
#ARTIST:He Jie;
#TITLETRANSLIT:Boys;
#SUBTITLETRANSLIT:;
#ARTISTTRANSLIT:Han Khiet;
#CREDIT:;
#BANNER:Boys-bn.png;
#BACKGROUND:Boys-bg.png;
#LYRICSPATH:;
#CDTITLE:pm4cd.png;
#MUSIC:Boys.mp3;
#OFFSET:0.060;
#SAMPLESTART:71.096;
#SAMPLELENGTH:20.000;
#SELECTABLE:YES;
#BPMS:0.000=122.010;
#STOPS:;
#BGCHANGES:;
// cache tags:
#FIRSTBEAT:0.750;
#LASTBEAT:520.750;
#SONGFILENAME:Songs/Music V.I.P ^_^/Boys/Boys.sm;
#HASMUSIC:1;
#HASBANNER:1;
#MUSICLENGTH:260.101;
// end cache tags

//---------------dance-single - ----------------
#NOTES:
     dance-single:
     :
     Hard:
     11:
     1.000,1.000,1.000,0.146,1.000,1306.000,446.000,38.000,0.000,182.000:
0000
0000
0000
0010
0100
1000
0100
0010
0001
0010
0100
1000
0100
0010
0001
0010
,
0100
1000
0100
0010
0001
0010
0100
1000
0100
0010
0001
0010
0100
1000
0100
0010
,
0001
0010
0100
0011
0100
1000
0100
0010
0001
0010
0100
1000
0100
0010
0001
0010
,
0100
1000
0100
1010
0001
0010
0100
1000
0100
0010
0001
0010
0100
1000
0100
0010
,
0001
0010
0100
1001
0100
0010
0001
0010
0100
1000
0100
0010
0001
0010
0100
1000
,
0100
0010
0001
1010
0100
1000
0100
0010
0001
0010
0100
1000
0100
0010
0001
0010
,
0100
1000
0100
0011
0100
0010
0100
1000
0100
0010
0001
0010
0100
1000
0100
0010
,
0001
0010
0100
1001
0010
0100
1000
0100
0010
0001
0010
0100
1000
0100
0010
0001
,
0010
0100
1000
0101
0010
0001
0010
0100
1000
0100
0010
0001
0010
0100
1000
0100
,
0010
0001
0010
0101
1000
0100
0010
0001
0010
0100
1000
0100
0010
0001
0010
0100
,
1000
0100
0010
1100
0010
0100
1000
0100
0010
0001
0010
0100
1000
0100
0010
0001
,
0010
0100
1000
0101
0010
0001
0010
0100
1000
0100
0010
0100
0011
0001
0001
0001
,
0010
0100
1000
1101
0000
0001
0010
0000
0010
0001
0000
0000
0101
0000
0000
0011
,
0000
1000
0000
0101
0000
1000
0100
0000
0100
1000
0000
0000
1100
0000
0000
0110
,
0000
0001
0000
0110
0000
0100
0010
0000
0010
0100
0000
0000
1100
0000
0000
0011
,
0000
0100
0000
1010
0100
1000
0000
1010
0100
1000
0000
0000
1001
0000
0000
0110
,
0000
0010
0000
0011
0000
0001
0100
0000
0100
0001
0000
0000
0110
0000
0000
1001
,
0000
0010
0000
1100
0000
0001
1000
0000
1000
0001
0000
0000
0101
0000
0000
0011
,
0000
1000
0000
0101
0000
0010
0100
0000
0100
0010
0000
0000
1100
0000
0000
0011
,
0000
1000
0000
0101
0010
0001
0000
0101
0010
0001
0000
0010
0000
1100
1000
1100
,
0100
1100
0000
0101
0000
0010
0000
1100
0000
0001
0000
1010
0000
0100
0000
0011
,
0000
1000
0000
1100
0000
0010
0000
0110
0000
0001
0000
1010
0000
0100
0000
1001
,
0000
0100
0000
0011
0000
1000
0000
1001
0000
0010
0000
1100
0000
0001
0000
1001
,
0000
0010
0000
1100
0000
0100
0100
0010
0001
0000
0001
0010
0100
1000
0100
0010
,
0001
1000
0000
1001
0000
1000
0000
1100
0000
0010
0000
0101
0000
0100
0000
0110
,
0000
0001
0000
1010
0000
1000
0000
0110
0000
0001
0000
1010
0000
0100
0000
1100
,
0000
0100
0000
1001
0000
0010
0000
1100
0000
0001
0000
1010
0000
0010
0000
1100
,
0000
0001
0000
0110
0000
1000
1000
0100
0010
0000
0010
0100
1000
0100
0010
0001
,
0010
0001
0000
1200
0000
0010
0000
1001
0000
1000
0000
1010
0000
0010
0000
1001
,
0000
0001
0300
0021
0000
0100
0000
1100
0000
1000
0000
0101
0000
0001
0000
1001
,
0000
0100
0030
2100
0000
0010
0000
0101
0000
0001
0000
0011
0000
0010
0000
0110
,
0000
0100
0000
0101
3000
0010
0010
0100
1000
0000
1000
0100
0010
0100
0010
0001
,
0010
0001
0000
0102
0000
0100
0000
0110
0000
1000
0000
1010
0000
0100
0000
1100
,
0000
0010
0003
0021
0000
1000
0000
1100
0000
0001
0000
0101
0000
0100
0000
1001
,
0000
0001
0030
0201
0000
0010
0000
1001
0000
0001
0000
0011
0000
1000
0000
1001
,
0000
0010
0300
2100
0000
0100
0000
0011
0000
0010
0000
0101
0000
3011
0010
0011
,
0001
0011
0001
1101
0000
0000
0000
1011
0000
0000
0000
1101
0000
0000
0000
0101
,
0000
0010
0000
1100
0000
0001
0000
1001
0000
0100
0000
0011
0000
1000
0000
0101
,
0000
0010
0000
1110
0000
0000
0000
0111
0000
0000
0000
1110
0000
0010
0000
0101
,
0000
0100
0000
0011
0000
1000
0000
0101
0000
0010
0000
0021
0000
0001
0000
1100
,
0000
1000
0000
1131
0000
0000
0000
1110
0000
0000
0000
1101
0000
0000
0000
0110
,
0000
0001
0000
1010
0000
0100
0000
0011
0000
1000
0000
1001
0000
0010
0000
1010
,
0000
0100
0000
0111
0000
0000
0000
1011
0000
0000
0000
0111
0000
0000
0000
1100
,
0000
0010
0000
0101
0000
0100
0000
1001
0000
0010
0000
2100
0000
0100
0010
0001
,
0000
0010
0000
3111
0000
0100
0010
0000
0010
0100
0000
0000
1001
0000
0000
0011
,
0000
0010
0000
1100
0000
0010
0001
0000
0001
0010
0000
0000
1010
0000
0000
0011
,
0000
1000
0000
0101
0000
0100
1000
0000
1000
0100
0000
0000
1010
0000
0000
0101
,
0000
0010
0000
0011
0100
1000
0000
0011
0100
1000
0000
0001
0010
0100
1000
0100
,
0010
0001
0010
1001
0000
1000
0000
1100
0000
0010
0000
1001
0000
0010
0000
1100
,
0000
0001
0000
1001
0000
0010
0000
1100
0000
0100
0000
0101
0000
0010
0000
1001
,
0000
0100
0000
0011
0000
1000
0000
1010
0000
0100
0000
0011
0000
0010
0000
1001
,
0000
0001
0000
1010
0000
0100
0100
0010
0001
0000
0100
0010
0001
0010
0100
0001
,
0100
1000
0000
0110
0000
0001
0000
1001
0000
0001
0000
0101
0000
0010
0000
1100
,
0000
1000
0000
1001
0000
0100
0000
0011
0000
0010
0000
1010
0000
0100
0000
0110
,
0000
0001
0000
1010
0000
0010
0000
1100
0000
0100
0000
0101
0000
0010
0000
0110
,
0000
0001
0000
1100
0000
0001
0001
0010
0100
0000
1000
0100
0010
0100
1000
0010
,
0100
0010
0000
0102
0000
0010
0000
1100
0000
1000
0000
0110
0000
1000
0000
1010
,
0000
0100
0003
2001
0000
0010
0000
0101
0000
0010
0000
0011
0000
0100
0000
0101
,
0000
0010
3000
0201
0000
1000
0000
0011
0000
1000
0000
1001
0000
0010
0000
0011
,
0000
0001
0000
1010
0300
1000
1000
0100
0010
0000
0010
0100
1000
0100
0010
1000
,
0010
0001
0000
1200
0000
0001
0000
0011
0000
1000
0000
1010
0000
0010
0000
1001
,
0000
1000
0300
0120
0000
0001
0000
1001
0000
0100
0000
1100
0000
0001
0000
1001
,
0000
1000
0030
0102
0000
1000
0000
1010
0000
0100
0000
0110
0000
1000
0000
1100
,
0000
0010
0003
1200
0000
0010
0000
1001
0000
0001
0000
1010
0000
0311
0001
0011
,
0010
0011
0000
1110
0000
0000
0000
1011
0000
0000
0000
1110
0000
0000
0000
0101
,
0000
0100
0000
1010
0000
0001
0000
0110
0000
1000
0000
1010
0000
0100
0000
0011
,
0000
0001
0000
1011
0000
0000
0000
1101
0000
0000
0000
1011
0000
0000
0000
1100
,
0000
0010
0000
0101
0000
1000
0000
1001
0000
0100
0000
0011
0000
0001
0000
1010
,
0000
0100
0000
0111
0000
0000
0000
1011
0000
0000
0000
0111
0000
0000
0000
1001
,
0000
0010
0000
1100
0000
0100
0000
0101
0000
0010
0000
1001
0000
0010
0000
1100
,
0000
0010
0000
1011
0000
0000
0000
1110
0000
0000
0000
1011
0000
0000
0000
0101
,
0000
0010
0000
1001
0000
0010
0000
1100
0000
0001
0000
1020
0000
1000
0100
0001
,
0000
0100
0000
1131
0000
1000
0001
0000
0001
1000
0000
0000
0101
0000
0000
1010
,
0000
0001
0000
1100
0000
0100
0010
0000
0010
0100
0000
0000
1001
0000
0000
0110
,
0000
0010
0000
0011
0000
0100
0001
0000
0001
0100
0000
0000
0110
0000
0000
1100
,
0000
0001
0000
1100
0010
0001
0000
1100
0010
0001
0000
0000
1100
0000
0000
0110
,
0000
1000
0000
0101
0000
0001
0100
0000
0100
0001
0000
0000
1100
0000
0000
1001
,
0000
0010
0000
0101
0000
0010
0001
0000
0001
0010
0000
0000
1100
0000
0000
0011
,
0000
1000
0000
0101
0000
0100
1000
0000
1000
0100
0000
0000
0101
0000
0000
0011
,
0000
0001
0000
1010
0100
0010
0000
1010
0100
0010
0000
1000
0100
0010
0001
0010
,
0100
1000
0100
0012
0000
0010
0100
1010
0000
1000
0100
1010
0000
0010
0100
1010
,
0000
1000
0100
1023
0000
1000
0100
1001
0000
0001
0100
1001
0000
1000
0100
1001
,
0000
0001
0100
2031
0000
0001
0010
0101
0000
0100
0010
0101
0000
0001
0010
0101
,
0000
0100
0010
3201
0000
0001
0010
1001
0000
1000
0010
1001
0000
0011
0001
0011
,
0000
0010
0001
1311
0000
1000
0100
1000
0000
0100
0000
0000
0000
0010
0100
0011
,
0000
0001
0010
1101
0000
0000
0110
1001
0000
0100
0000
0001
0010
0100
1000
0100
,
0010
0001
0010
1101
0000
0000
1100
0011
0000
0100
0000
1000
0100
0010
0001
0010
,
0100
1000
0100
1011
0000
0000
0101
1010
0000
0001
0000
0001
0010
0100
1000
0100
,
0010
0001
0010
2101
0000
0000
0011
0110
0000
0001
0000
0010
0000
0100
0010
0001
,
0010
0100
0010
3201
0000
0000
1001
1010
0000
0001
0000
1000
0000
0001
0010
1000
,
0010
0001
0010
1302
0000
0000
1100
0110
0000
1000
0000
0010
0000
1000
0100
0010
,
0100
1000
0100
1023
0000
0000
1001
1100
0000
0001
0000
1000
0000
0100
0001
0100
,
1000
0100
0001
1131
0000
0000
0000
1011
0000
0000
0000
1101
0000
0000
0000
0110
,
0000
1000
0100
1000
0100
0010
0000
1001
0000
1000
0100
0010
0100
0010
0001
0100
,
0000
1000
0000
1011
0000
0000
0000
1110
0000
0000
0000
1011
0000
0000
0000
1001
,
0000
0100
0000
0010
0000
0000
0000
0001
0010
0100
0010
0100
1000
0100
0010
0001
,
0010
0100
0010
1101
0000
0000
0000
1011
0000
0000
0000
1101
0000
0000
0000
0011
,
0000
0001
0010
0001
0010
0100
0000
1001
0000
0000
0000
1000
0100
1000
0100
0010
,
0001
0010
0100
1011
0000
0000
0000
0111
0000
0000
0000
1011
0000
0000
0000
1010
,
0000
0010
0001
0010
0100
0010
0000
1001
0000
0010
0100
0010
0001
0110
0100
0110
,
0010
0110
0001
2110
0000
0010
0000
0101
0000
0100
0000
0011
0000
0001
0000
0110
,
0000
0010
3000
0201
0000
0010
0000
1001
0000
0010
0000
1010
0000
0001
0000
0011
,
0000
0010
0300
1020
0000
0001
0000
1100
0000
0100
0000
0101
0000
0001
0000
1001
,
0000
1000
0030
0110
0000
0010
0010
0001
0010
0000
0010
0100
1000
0100
0010
1000
,
0100
0001
0000
1200
0000
0010
0000
1001
0000
0001
0000
1010
0000
0010
0000
0011
,
0000
1000
0300
1002
0000
0010
0000
0110
0000
1000
0000
1100
0000
0010
0000
1010
,
0000
0100
0003
2010
0000
0010
0000
0011
0000
0100
0000
0101
0000
0001
0000
0110
,
0000
0001
3000
0021
0000
0001
0000
0101
0000
1000
0000
1001
0000
1130
1000
1100
,
0100
1100
0000
1101
0000
0000
0000
0111
0000
0000
0000
1101
0000
0000
0000
0011
,
0000
0110
0000
1100
0000
1001
0000
0101
0000
0011
0000
1001
0000
1010
0000
1001
,
0000
1010
0000
0111
0000
0000
0000
1110
0000
0000
0000
0111
0000
0000
0000
1001
,
0000
1010
0000
1100
0000
0101
0000
1010
0000
0101
0000
0110
0000
1000
0000
0100
,
0000
0010
0000
1101
0000
0000
0000
1110
0000
0000
0000
1101
0000
0000
0000
0101
,
0000
1010
0000
1100
0000
0110
0000
0011
0000
1001
0000
0110
0000
1010
0000
0110
,
0000
0101
0000
1011
0000
0000
0000
0111
0000
0000
0000
1011
0000
0000
0000
1100
,
0000
0110
0000
0011
0000
0110
0000
1100
0000
1001
0000
0101
0000
0011
0010
0011
,
0001
0011
0000
1011
0100
0010
0001
1110
0001
1000
0100
1011
0100
1000
0010
0101
,
1000
0100
0001
0110
1000
0100
0010
1001
0100
0010
1000
0101
0010
0001
0100
1010
,
0100
0010
0001
1110
0001
1000
0100
1011
0100
1000
0001
1110
0001
0010
0100
1001
,
0100
0010
1000
0101
0010
0001
0100
0011
1000
0100
0010
1001
0100
1000
0001
1010
,
0100
1000
0010
1101
0010
0001
0100
1011
0100
0001
0010
1101
0010
0100
1000
0101
,
0010
0001
1000
0110
0001
0010
0100
0011
1000
0100
0010
1001
0100
0010
0001
1010
,
0100
1000
0001
1110
0001
0100
1000
0111
1000
0100
0001
1110
0001
0010
0100
1001
,
0100
0010
0001
1100
0010
0100
0010
0101
1000
0001
0100
1010
0001
1100
0100
1100
,
1000
1100
0100
0102
0000
0010
1000
0110
0000
1000
0010
1100
0000
0010
1000
0110
,
0000
1000
0010
2103
0000
0010
0001
0110
0000
0001
0010
0101
0000
0010
0001
0110
,
0000
0001
0010
3201
0000
0001
1000
0011
0000
0010
0001
1010
0000
0001
1000
0011
,
0000
0010
0001
1320
0000
0001
1000
0101
0000
1000
0100
1001
0000
0001
1000
0101
,
0000
1000
0100
1032
0000
0010
0100
1010
0000
1000
0100
1010
0000
0010
0100
1010
,
0000
1000
0100
2013
0000
0001
0010
0100
0000
0100
0010
0001
0000
0001
0010
0100
,
0000
0100
0010
3001
0000
0000
0000
0000
0000
0000
0000
0000
0000
0000
0000
0000
;
